精彩摄影推荐

全球限量5000張珍藏版 閔惠芬-《江河水》[XRCD24]【WAV整轨 百度】

[复制链接]
发表于 2012-2-18 10:34:07 | 显示全部楼层 |阅读模式
專    輯: 江河水
唱片公司:FIM (一聽鍾情)
藝 術 家:閔惠芬(二胡) 李煒(古箏)
格  式:XRCD24
唱片編碼:FIM XR24 006
發行時間:2003年【感谢原作者发布多米好碟】
1.jpg

2.jpg

3.jpg
專輯簡介:

  全球限量5000張珍藏版 閔惠芬/二胡;古箏/李煒   閔惠芬是我國知名的二胡演奏家,出生于二胡之鄉——江蘇宜興。閔惠芬八歲從其父閔季騫學習二胡,12歲進上海音樂學院附中直到大學畢業,師從王乙、陸修棠。1963年獲第四屆“上海之春”全國二胡比賽一等獎。後多次出國訪問演出,在國際樂壇上享有盛譽。閔惠芬的演奏基本功全面扎實,富有激情,對樂曲內涵理解深刻,處理細膩,具有動人的藝術魅力,被小澤征爾稱作“世界上最偉大的弦樂演奏家之一”。本張專輯中收錄了著名的二胡小曲,如姑蘇春曉、賽馬等,閔惠芬的演奏細膩,富有民間特色,細節的處理上十分精美;大型樂曲如新婚別、長城主題隨想曲,又體現了她對於大型曲式的把握以及嫺熟的演奏技巧。    本碟主題曲《江河水》,是源于東北遼南鼓吹樂笙管曲的同名曲牌。初為雙管獨奏,後被移植改編成二胡獨奏,成為一首膾炙人口的二胡名曲。這首樂曲演繹了一個淒涼悲淒的故事:某地有一對恩愛夫妻,丈夫服勞役離鄉而去,忽遭不測死於外城。妻子聞訊,如雷轟頂,在當時與丈夫依依惜別的江邊,面對著滔滔河水嚎啕痛哭、悲憤欲絕,訴之泣之,遙相祭奠……  天時、地利、人和及機緣的配合,大師典範的演繹,不朽國樂名曲。兩位大師『閔惠芬』與『李煒』合奏超越範疇,匠心獨運,無窮無盡音樂感染力震撼人心。

專輯曲目:


01. RIVER OF SORROW 江河水
02. LADY ZHAO JUN BIDDINC FAREWEIL OVER THE FROTIER 昭君出塞
03. FISHERMEN SINGING THE NIGT SONG 漁舟唱晚
04. LOFIY MOUNTAIN AND GUSHING CASCADE 高山流水
05. THE HORSE RACING 賽馬
06. MOOD & DREAM OF AN OPERA 戲夢
07. MOONLIGHT OVER CASCADE EROUAN 二泉映月
08. NIGHT RAM FALLING OF THE PLANYAIN TREE OUTSIDE YHE WINDOW 蕉窗夜雨
09. A MAIDEN’S DREAM IN A CHINESE GARDE 遊園
10. MOONLIFHT OVER THE FLOWERY RIVER IN SPRING 春江花月夜

EAC 抓取日誌


Exact Audio Copy V0.99 prebeta 5 from 4. May 2009

EAC 抓取日志文件从1. 七月 2011, 4:45

Hui Fen MIN 閔惠芬 / RIVER OF SORROW 江河水(全球限量5000張珍藏版)

使用驱动器  :YAMAHA  CRW-F1E   Adapter: 3  ID: 1

读取模式     : 保护
使用精确流   : 是
废除音频缓冲 : 是
使用 C2 指针 : 否

读取偏移校正                   : 733
读取 Lead-In 和 Lead-Out       : 否
用静音填充抓取中丢失偏移的采样 : 是
去除首尾静音块                 : 否
在 CRC 计算中使用了空样本      : 是
已用接口                       : 已安装外部 ASPI 接口

所用输出格式 : 内部 WAV 函数
样本格式     : 44.100 Hz;16 Bit;立体声


被抓轨 CD 的 TOC

     音轨 |   开始   |   长度   | 起始扇区 | 结尾扇区
    --------------------------------------------------
       1  |  0:00.00 |  7:13.08 |       0  |   32482  
       2  |  7:13.08 |  9:26.02 |   32483  |   74934  
       3  | 16:39.10 |  7:14.50 |   74935  |  107534  
       4  | 23:53.60 |  3:17.00 |  107535  |  122309  
       5  | 27:10.60 |  1:51.05 |  122310  |  130639  
       6  | 29:01.65 |  8:52.68 |  130640  |  170607  
       7  | 37:54.58 |  5:58.67 |  170608  |  197524  
       8  | 43:53.50 |  4:20.63 |  197525  |  217087  
       9  | 48:14.38 |  5:28.10 |  217088  |  241697  
      10  | 53:42.48 |  9:34.67 |  241698  |  284814  


范围状态及错误

已选择范围

     文件名 D:\【原創音樂】\Hui Fen MIN 閔惠芬 - RIVER OF SORROW 江河水(全球限量5000張珍藏

版).wav

     峰值电平 100.0 %
     范围质量 100.0 %
     复制 CRC 8704D93D
     复制成功

没有错误发生


AccurateRip 概要

音轨  1  已正确抓取 (确认 17)  [FE2A28CD]
音轨  2  已正确抓取 (确认 17)  [B3AFE5C0]
音轨  3  已正确抓取 (确认 17)  [2C5B4256]
音轨  4  已正确抓取 (确认 17)  [F2E02C7F]
音轨  5  已正确抓取 (确认 17)  [D26F4D8A]
音轨  6  已正确抓取 (确认 17)  [C5148904]
音轨  7  已正确抓取 (确认 17)  [112D09EC]
音轨  8  已正确抓取 (确认 17)  [EF996033]
音轨  9  已正确抓取 (确认 17)  [2C56BF58]
音轨 10  已正确抓取 (确认 16)  [49D8509F]

所有音轨已被精确抓取

状态报告结尾
无错误发生载点:
游客,如果您要查看本帖隐藏内容请回复



发表于 2022-11-10 08:07:43 | 显示全部楼层
感谢分享
发表于 2022-4-20 15:15:02 | 显示全部楼层
谢谢分享
发表于 2012-8-30 10:05:32 | 显示全部楼层
这个真是好东西
感谢分享
发表于 2012-7-30 20:59:42 | 显示全部楼层
收下,{:5_101:}
发表于 2012-2-24 23:06:00 | 显示全部楼层
这才是真正宝贵的资源啊
您需要登录后才可以回帖 登录 | 立即注册 微信登录

本版积分规则

© 2012-2020 明星坊             蜀ICP备2021030903号                   粤公网安备 44010502001718号      四川明星坊文化传播有限公司
快速回复 返回顶部 返回列表